WK綜合論壇, WK综合论坛

查看:6237 回復:13 發表於 2018-3-12 01:56:36
本主題由 212love 於 2018-3-8 23:52 解除高亮
累計簽到︰1542 天
連續簽到︰4 天
發表於 2018-3-7 16:13:32 | 顯示全部樓層 |閱讀模式

僵屍攻擊 Attack.of.the.Southern.Fried.Zombies., 2017.[MKV / 9.4G] [複製鏈接]

影視分享
分類: 電影
題材: 恐怖 
地區: 美國 
語言: 英语 
格式: MKV 
年份: 2017
資源: BT资源
1.jpg 6 i- F% d: b, d" [& M$ z  J, G3 n

& D  }9 y& v8 Q9 E5 |◎译  名 AttackoftheSouthernFriedZombies
: H' U+ }  q! @0 i
9 |0 }. s) ^' ?3 D◎片  名 Kudzu Zombies  d. s8 k* W$ \+ Q) b

/ e& W2 @' h+ e6 \◎年  代 2017. P! [5 }- U  f% O. w" W5 T* j

/ k4 M! @3 }6 Q6 ?5 [" i◎产  地 美国6 @1 I7 ^" Y4 W" I
# I7 O$ [& A8 k! f* E0 i
◎类  别 恐怖
" h7 g5 q8 ]/ i+ m+ M: {2 f% g1 @2 I  S- z, X2 Z
◎语  言 英语, g! `! \9 ?4 F' B' t: a' V9 b  |
1 d' O7 y* v/ o
◎IMDb评分  7.0/10 from 17 users# {/ o6 u0 b. s! \+ x
6 A2 N6 z6 X& e6 `4 |3 s/ P
◎IMDb链接  http://www.imdb.com/title/tt5594444/
8 y1 I0 C3 Z6 f7 d4 R, U. ~! _( @6 G; r0 @
◎导  演 Mark Newton
$ D& x  T# ~' D+ j6 N- }
, |: Q6 ?6 H/ c, J' q0 D◎主  演 Megan Few
; d2 u6 O, T! T& A' P7 g0 I* J* f, q( k* u5 {# M7 @; i5 c9 G8 h
      Jeremy Sande8 F# q8 k. V7 l4 Y& s
! Y. p3 |/ U% a% Z
      Michael Joiner; a: a! `' x& M

3 J( \; j+ X  @/ X/ M1 I7 C$ c# u6 i  F( D
+ I! e6 f, B# C2 q8 l( i
◎简  介6 l, ?: L+ S+ h
3 M3 S" K& _& }7 V1 J3 @
5 x- ^# @+ w7 M$ p  h
$ @! v5 D9 P) F- |
  Lonnie, a crop duster pilot, must lead a mismatched group of survivors to escape the deadly zombie horde after an experimental chemical, intended to control the invasive kudzu vine, transforms the citizens of Charleston, MS into zombies.
1 X4 O3 O2 D9 C+ D. D2 |: U9 z7 |0 v% G2 ^$ d

  I" b. W+ H" T3 h$ y0 T, e  W" R6 N5 C) E2 n5 X. f
Video
1 z! Y7 x$ n; q! r2 l0 x  r" L1 ]ID                                       : 18 L6 O: z0 _: k
Format                                   : AVC/ ]: L, q& o. u( s9 f
Format/Info                              : Advanced Video Codec
% r! S6 h# R; y" ZFormat profile                           : High@L4.19 {! J) E* Y6 y4 G5 n
Format settings                          : CABAC / 4 Ref Frames% Z0 ^1 h- j$ R; j  Y' V- h+ X
Format settings, CABAC                   : Yes$ Q% q# @: x; C8 x7 _
Format settings, ReFrames                : 4 frames/ s, [1 _8 i3 Q% U8 i
Codec ID                                 : V_MPEG4/ISO/AVC$ C( b# E6 Y- K) g+ k4 u0 m2 s
Duration                                 : 1 h 23 min
5 T3 N5 N) d2 UBit rate                                 : 14.8 Mb/s
2 l  \8 T# r9 v- f2 G, Q3 mWidth                                    : 1 920 pixels2 m9 j# x0 f7 r. Y  u
Height                                   : 1 080 pixels
9 w4 V/ L# E- y+ [8 t2 }- Y& v7 kDisplay aspect ratio                     : 16:9- Y7 m  k3 W" `. d0 @- S
Frame rate mode                          : Constant
" C- m3 v4 h. M  \: }8 N7 K) i9 TFrame rate                               : 23.976 (24000/1001) FPS
7 {$ X! L' H$ _% x/ nColor space                              : YUV
8 z& Z8 B2 C6 f' @# w4 _7 q9 bChroma subsampling                       : 4:2:0: h+ q* x3 K9 o" n" [
Bit depth                                : 8 bits$ f3 ~" {# j4 Q8 \+ o/ M7 x
Scan type                                : Progressive4 k' y  `0 @# J" q
Bits/(Pixel*Frame)                       : 0.298$ a; v! q5 Q2 o% \
Stream size                              : 8.61 GiB (91%)& _! S: N7 e$ y. Z3 e0 N9 Z
Writing library                          : x264 core 149 r2771+45 509cceb 7mod [8-bit@all X86_64]
& l$ a: Z" l  j8 A! PEncoding settings                        : cabac=1 / ref=4 / deblock=1:-3:-3 / analyse=0x3:0x113 / me=umh / subme=10 / psy=1 / fade_compensate=0.00 / psy_rd=0.90:0.10 / mixed_ref=1 / me_range=48 / chroma_me=1 / trellis=2 / 8x8dct=1 / cqm=0 / deadzone=21,11 / fast_pskip=0 / chroma_qp_offset=-2 / threads=12 / lookahead_threads=2 / sliced_threads=0 / nr=0 / decimate=1 / interlaced=0 / bluray_compat=0 / constrained_intra=0 / fgo=0 / bframes=8 / b_pyramid=2 / b_adapt=2 / b_bias=0 / direct=3 / weightb=1 / open_gop=0 / weightp=2 / keyint=250 / keyint_min=23 / scenecut=40 / intra_refresh=0 / rc_lookahead=40 / rc=crf / mbtree=0 / crf=19.0000 / qcomp=0.70 / qpmin=0:0:0 / qpmax=69:69:69 / qpstep=4 / vbv_maxrate=35000 / vbv_bufsize=35000 / crf_max=0.0 / nal_hrd=none / filler=0 / ip_ratio=1.40 / pb_ratio=1.30 / aq=3:1.00 / aq-sensitivity=10.00 / aq-factor=1.00:1.00:1.00 / aq2=0 / aq3=2:[0.50:0.50]:[0.50:0.50]:[0.50:0.50]:[0.50:0.50] / aq3-sensitivity=10.00 / aq3-factor=[1.00:1.00]:[1.00:1.00]:[1.00:1.00] / aq3-boundary=192:64:24. x/ u* }7 O' F$ ?1 y5 u; O
Language                                 : English5 ~) _- G4 [, ?$ T
Default                                  : Yes! R, z5 m0 I- U9 ~% V# ^
Forced                                   : No6 d, N& J9 N6 X- k* W8 \
Color range                              : Limited
0 Z1 |1 T# b8 ~6 ?& oMatrix coefficients                      : BT.709
* e7 {0 ^! ?, k' V
) ]" r" Z, C! X0 d2 A$ FAudio9 S- s; u8 u& G; V* L' D1 c
ID                                       : 2) j2 _3 U7 K6 r( N8 k2 A$ o6 ?3 E
Format                                   : DTS
6 x3 \7 g" P8 b- B  P# L/ I. R  e# PFormat/Info                              : Digital Theater Systems
' R: N6 ?8 g7 X" _. rCodec ID                                 : A_DTS2 q/ \1 T; N% q* W% t
Duration                                 : 1 h 23 min
0 V# v1 i/ A/ Q# cBit rate mode                            : Constant
8 J( e: v8 a0 R( d/ i9 `Bit rate                                 : 1 509 kb/s
0 d# v# P$ R  {/ \+ l1 sChannel(s)                               : 6 channels
* Z: |- {1 ^4 U( p& cChannel positions                        : Front: L C R, Side: L R, LFE
' X5 U% R& Q# y4 I% y, Z6 gSampling rate                            : 48.0 kHz- Y  S7 M# _" V4 z( Y
Frame rate                               : 93.750 FPS (512 SPF)' r4 ^% _% @- V0 H
Bit depth                                : 24 bits! E/ N/ H: z8 [0 \
Compression mode                         : Lossy
/ f' N; @. R& u7 {. _$ `, s' vStream size                              : 898 MiB (9%)
/ |8 m9 U: e0 O$ k' @- ULanguage                                 : English5 L+ X3 H# s! Z% o* q9 D  C5 L
Default                                  : Yes
' \' _" N$ d' _, jForced                                   : No

! o8 q5 Y% y+ O) Y( w5 b; L0 f6 T  _
+ F# X3 W/ D) g7 }. Q+ a6 A

僵屍攻擊. MKV.torrent

95.48 KB, 下載次數: 712

尚未簽到

發表於 2018-3-7 16:14:35 | 顯示全部樓層
很讚的文章,謝謝咯!相信WK因為有你而更加精彩!
累計簽到︰1609 天
連續簽到︰12 天
發表於 2018-3-7 18:06:29 | 顯示全部樓層
這個我收藏了!謝謝分享!WK的資源越來越豐富,這少不了大大的辛勞!

尚未簽到

發表於 2018-3-8 03:24:01 來自手機 | 顯示全部樓層
感謝大大的辛勞分享!我會繼續在WK關注大大的文章!

尚未簽到

發表於 2018-3-8 13:51:41 | 顯示全部樓層
絕對的好貼!謝謝啊!逐字逐圖地看完這個帖子以後,我的心久久不能平靜,感恩啊!

尚未簽到

發表於 2018-3-10 00:12:14 | 顯示全部樓層
精妙絕倫的精品,感謝啊!期待你更多更好的創作哦!

尚未簽到

發表於 2018-3-10 15:50:52 | 顯示全部樓層
絕對的好貼!謝謝啊!逐字逐圖地看完這個帖子以後,我的心久久不能平靜,感恩啊!

尚未簽到

發表於 2018-3-10 18:18:52 | 顯示全部樓層
很讚的文章,謝謝咯!相信WK因為有你而更加精彩!
累計簽到︰953 天
連續簽到︰6 天
發表於 2018-3-10 23:26:44 | 顯示全部樓層
感謝大大的辛勞分享!我會繼續在WK關注大大的文章!

尚未簽到

發表於 2018-3-12 01:56:36 | 顯示全部樓層
偶像^^小生一直都在關注你的原創!小生對你之仰慕如滔滔江水連綿不絕!

回復樓主 親!! 現在是後半夜!妳失眠啦?餓啦?通宵加班?還是想WK啦?

 分享同時學會感恩,一句感謝的話語,就是最大的支持!  歡迎交流討論
您需要登錄後才可以回帖 登錄 | 立即注册

本版積分規則

c重要聲明:本論壇是以即時上載言論的方式運作,WK論壇對所有言論的真實性、立場及版權等,不負任何法律責任。而一切言論只代表發佈者個人意見,並非本網站之立場,讀者及用戶務必自行判斷內容之真實性。 由於本論壇受到「即時上載言論」運作方式所規限,故不能完全監察所有言論,若讀者及用戶發現有內容出現「真實性、立場及版權」等問題,請聯絡我們:info@waikeung.net論壇有權刪除任何言論(刪除前或不會作事先警告及通知)| SiteMap[網站地圖]

發表新帖 返回頂部