WK綜合論壇, WK综合论坛

查看:6077 回復:13 發表於 2018-3-12 01:56:36
本主題由 212love 於 2018-3-8 23:52 解除高亮
累計簽到︰1383 天
連續簽到︰12 天
發表於 2018-3-7 16:13:32 | 顯示全部樓層 |閱讀模式

僵屍攻擊 Attack.of.the.Southern.Fried.Zombies., 2017.[MKV / 9.4G] [複製鏈接]

影視分享
分類: 電影
題材: 恐怖 
地區: 美國 
語言: 英语 
格式: MKV 
年份: 2017
資源: BT资源
1.jpg ; i+ F; Q4 B, ~3 \3 N3 y5 ~* |/ V

0 j* d, C9 b4 f6 G4 u  c7 I0 Q4 X+ j◎译  名 AttackoftheSouthernFriedZombies
+ J, h; Z# A2 n2 T; Y: F) c0 Q" }; j
◎片  名 Kudzu Zombies
8 \% s0 Z- [" @2 j! U- B* Z- B. E$ I$ @: x7 y- C* v5 J9 I" `
◎年  代 2017
) E  T" C( _, i1 V" E( [4 G/ ]  O
◎产  地 美国5 X- b: ^7 R0 \2 D

9 R' t: ^! J% P5 `( G, I◎类  别 恐怖% V1 R1 H7 w9 i# k$ B

2 d4 [: b2 J9 Z, a' \/ l# t◎语  言 英语6 B- g' Z) }! c) [) t% ?9 z0 g

" ~  N7 ?! p* `  j0 w4 A- y◎IMDb评分  7.0/10 from 17 users
5 I0 S5 e' |" y8 Q: E0 y' y- ~, `0 G$ d7 d3 L, i
◎IMDb链接  http://www.imdb.com/title/tt5594444/
! T7 o$ r5 h& q& g' T2 k; \9 N9 q+ E8 p- Z7 D/ j+ N- o% a3 w
◎导  演 Mark Newton
+ Y, ]: g. C" r
! n  G6 O3 {1 |" ^  P, r& L3 j◎主  演 Megan Few
7 v5 k; \- P: [" \& s, G6 X! M7 q  c3 s: |# R5 l% X, ~
      Jeremy Sande
: L0 p, X6 G/ m1 X( d# C' w, D- O6 u, G' @
      Michael Joiner
; U6 l1 B/ N( P4 O% W$ I' R' @, L4 w, k
- L% B5 ^! F, t8 S

' n# p( M& K' h/ w( m1 l$ b  v; y◎简  介9 O6 d$ Q5 i$ Y9 [# l  K% a' B# ?* T2 i
- W7 L- [: M$ s7 \( y' \6 g+ X) h

9 ~) \5 P( j/ a- M  G  w- d
9 j; r9 ~7 j* e$ s7 Y' l  Lonnie, a crop duster pilot, must lead a mismatched group of survivors to escape the deadly zombie horde after an experimental chemical, intended to control the invasive kudzu vine, transforms the citizens of Charleston, MS into zombies.
. z, A( P% G' T$ D) [
0 S  H2 p9 j6 g7 R' I5 i, p; |" p, F" e

+ P4 C$ A4 p# N* w; X; QVideo
0 X9 v. x1 ^8 a2 L; g: c6 P$ Q" KID                                       : 15 H6 d: m1 d, A  |) ~/ C, X
Format                                   : AVC
- b3 L% _! q! h* j$ GFormat/Info                              : Advanced Video Codec
" V# F: g& v# i; C0 K3 C. I7 ^Format profile                           : High@L4.1& V; P: Y9 R) o% ]. Q+ a
Format settings                          : CABAC / 4 Ref Frames- j, U* _% i0 v! ^
Format settings, CABAC                   : Yes/ L- H( c* k& u+ G0 x$ }. Q
Format settings, ReFrames                : 4 frames
2 @; e( N- L4 E) ?) `Codec ID                                 : V_MPEG4/ISO/AVC  |3 S& C( C4 X8 ]
Duration                                 : 1 h 23 min
' X4 T% i4 ?8 ~9 `- aBit rate                                 : 14.8 Mb/s
' X+ t0 g! ^0 G3 oWidth                                    : 1 920 pixels$ P* E, N- h- \; e2 i
Height                                   : 1 080 pixels, T% g( i- d3 c- j/ v
Display aspect ratio                     : 16:9' Z) l+ c& |9 G  N& ?0 |' {
Frame rate mode                          : Constant1 j. A9 o4 x% j: K+ w) \3 z5 i
Frame rate                               : 23.976 (24000/1001) FPS
$ ?" \% h6 N$ |6 CColor space                              : YUV
8 y) m$ I6 o8 j8 `Chroma subsampling                       : 4:2:0
+ d8 u% g0 ?6 I$ k% {: V5 p  @Bit depth                                : 8 bits
. ^( {; x" T+ W  @1 bScan type                                : Progressive! e# d' ]; e; v5 y
Bits/(Pixel*Frame)                       : 0.298+ t# a0 `: w& `; N9 A# {8 z7 b
Stream size                              : 8.61 GiB (91%). d  V  z1 W  @( q% {
Writing library                          : x264 core 149 r2771+45 509cceb 7mod [8-bit@all X86_64]
+ j; r4 [0 x/ ~) IEncoding settings                        : cabac=1 / ref=4 / deblock=1:-3:-3 / analyse=0x3:0x113 / me=umh / subme=10 / psy=1 / fade_compensate=0.00 / psy_rd=0.90:0.10 / mixed_ref=1 / me_range=48 / chroma_me=1 / trellis=2 / 8x8dct=1 / cqm=0 / deadzone=21,11 / fast_pskip=0 / chroma_qp_offset=-2 / threads=12 / lookahead_threads=2 / sliced_threads=0 / nr=0 / decimate=1 / interlaced=0 / bluray_compat=0 / constrained_intra=0 / fgo=0 / bframes=8 / b_pyramid=2 / b_adapt=2 / b_bias=0 / direct=3 / weightb=1 / open_gop=0 / weightp=2 / keyint=250 / keyint_min=23 / scenecut=40 / intra_refresh=0 / rc_lookahead=40 / rc=crf / mbtree=0 / crf=19.0000 / qcomp=0.70 / qpmin=0:0:0 / qpmax=69:69:69 / qpstep=4 / vbv_maxrate=35000 / vbv_bufsize=35000 / crf_max=0.0 / nal_hrd=none / filler=0 / ip_ratio=1.40 / pb_ratio=1.30 / aq=3:1.00 / aq-sensitivity=10.00 / aq-factor=1.00:1.00:1.00 / aq2=0 / aq3=2:[0.50:0.50]:[0.50:0.50]:[0.50:0.50]:[0.50:0.50] / aq3-sensitivity=10.00 / aq3-factor=[1.00:1.00]:[1.00:1.00]:[1.00:1.00] / aq3-boundary=192:64:24
0 f5 F0 o  l/ k/ pLanguage                                 : English7 N3 `6 ^! \2 x) T: s
Default                                  : Yes
, {& K* X  F7 FForced                                   : No& [% X, f- t1 B# {. F% j
Color range                              : Limited5 I( z& l+ ^6 S5 ?$ M
Matrix coefficients                      : BT.709
  C9 u( q3 a( M3 y
2 N# D1 _- h, Y% l( }: i; R2 F1 IAudio
% Y; R" z* a( K% ?ID                                       : 2
0 N$ g4 x. c( r$ f% ?* QFormat                                   : DTS
4 Y/ i; a% k$ d3 k5 VFormat/Info                              : Digital Theater Systems
) L4 y3 E) D, f( V- k8 LCodec ID                                 : A_DTS
4 d9 U) o' Z/ ]; w: U% qDuration                                 : 1 h 23 min1 Z8 B6 r, H& c. N6 U
Bit rate mode                            : Constant- U. W* r& b' \7 P8 J
Bit rate                                 : 1 509 kb/s$ a6 L  Y3 b/ \, L3 H( A
Channel(s)                               : 6 channels/ T$ v% [8 f0 g. t# {- D
Channel positions                        : Front: L C R, Side: L R, LFE
1 U$ U; H9 G( x0 M9 x6 `9 uSampling rate                            : 48.0 kHz) P  `6 j7 j) p8 I: z
Frame rate                               : 93.750 FPS (512 SPF)
; S2 P- [( `$ O/ |- k4 g# |# yBit depth                                : 24 bits
) t  ?4 c1 }/ y4 `5 bCompression mode                         : Lossy) [4 z7 e/ e+ }- u/ z( Y, c
Stream size                              : 898 MiB (9%)5 l  K! @1 D$ ?. N9 C4 M% J2 v
Language                                 : English- \+ j, C6 |5 E1 N+ W. k3 }
Default                                  : Yes1 a0 p% E# e& `8 ]4 C1 J7 s$ c
Forced                                   : No
- [7 V: B& A$ p3 d; ~. H: M

0 y& p. [( K" _. C" G2 l9 I9 }/ F8 s$ B. Q2 h' e* Z# p' H$ n) p

僵屍攻擊. MKV.torrent

95.48 KB, 下載次數: 712

尚未簽到

發表於 2018-3-7 16:14:35 | 顯示全部樓層
很讚的文章,謝謝咯!相信WK因為有你而更加精彩!
累計簽到︰1443 天
連續簽到︰35 天
發表於 2018-3-7 18:06:29 | 顯示全部樓層
這個我收藏了!謝謝分享!WK的資源越來越豐富,這少不了大大的辛勞!

尚未簽到

發表於 2018-3-8 03:24:01 來自手機 | 顯示全部樓層
感謝大大的辛勞分享!我會繼續在WK關注大大的文章!

尚未簽到

發表於 2018-3-8 13:51:41 | 顯示全部樓層
絕對的好貼!謝謝啊!逐字逐圖地看完這個帖子以後,我的心久久不能平靜,感恩啊!

尚未簽到

發表於 2018-3-10 00:12:14 | 顯示全部樓層
精妙絕倫的精品,感謝啊!期待你更多更好的創作哦!

尚未簽到

發表於 2018-3-10 15:50:52 | 顯示全部樓層
絕對的好貼!謝謝啊!逐字逐圖地看完這個帖子以後,我的心久久不能平靜,感恩啊!

尚未簽到

發表於 2018-3-10 18:18:52 | 顯示全部樓層
很讚的文章,謝謝咯!相信WK因為有你而更加精彩!
累計簽到︰841 天
連續簽到︰11 天
發表於 2018-3-10 23:26:44 | 顯示全部樓層
感謝大大的辛勞分享!我會繼續在WK關注大大的文章!

尚未簽到

發表於 2018-3-12 01:56:36 | 顯示全部樓層
偶像^^小生一直都在關注你的原創!小生對你之仰慕如滔滔江水連綿不絕!

回復樓主 親!! 下午好,中午養足了精神嗎?讓我們一起渡過下午茶時間,WK有您更精彩!

 分享同時學會感恩,一句感謝的話語,就是最大的支持!  歡迎交流討論
您需要登錄後才可以回帖 登錄 | 立即注册

本版積分規則

c重要聲明:本論壇是以即時上載言論的方式運作,WK論壇對所有言論的真實性、立場及版權等,不負任何法律責任。而一切言論只代表發佈者個人意見,並非本網站之立場,讀者及用戶務必自行判斷內容之真實性。 由於本論壇受到「即時上載言論」運作方式所規限,故不能完全監察所有言論,若讀者及用戶發現有內容出現「真實性、立場及版權」等問題,請聯絡我們:info@waikeung.net論壇有權刪除任何言論(刪除前或不會作事先警告及通知)| SiteMap[網站地圖]

發表新帖 返回頂部