WK綜合論壇, WK综合论坛

查看:6192 回復:13 發表於 2018-3-12 01:56:36
本主題由 212love 於 2018-3-8 23:52 解除高亮
累計簽到︰1470 天
連續簽到︰17 天
發表於 2018-3-7 16:13:32 | 顯示全部樓層 |閱讀模式

僵屍攻擊 Attack.of.the.Southern.Fried.Zombies., 2017.[MKV / 9.4G] [複製鏈接]

影視分享
分類: 電影
題材: 恐怖 
地區: 美國 
語言: 英语 
格式: MKV 
年份: 2017
資源: BT资源
1.jpg : W( J, [& x" T: \! r
6 p* E/ U" G9 W: K4 x  _# r
◎译  名 AttackoftheSouthernFriedZombies0 c3 D; F0 g8 n) A% E3 W+ q

% U4 |3 P' P) Y. K+ M◎片  名 Kudzu Zombies+ _# X' e6 I$ A$ L5 c' Z3 G8 u
8 d2 |7 I" f3 G& J. f+ D7 C% c* u3 \
◎年  代 2017
1 s2 D! L; C. T; q, @( |3 g$ z. g/ _* m" ^1 W& B' w5 w
◎产  地 美国
" d1 K+ l( w/ a6 R- o8 G
4 u/ Q9 n# B# `. W! Q% z: ?3 M◎类  别 恐怖
- h% V1 ^/ l- S5 {6 G1 d4 B2 T5 _% G+ u9 {6 A. k2 j8 o/ t
◎语  言 英语6 t+ t+ j! r! t5 e
3 U+ N4 c/ \, X, r
◎IMDb评分  7.0/10 from 17 users
4 s" H" }6 f' u  ~! \  @* f% s. A% N; L
◎IMDb链接  http://www.imdb.com/title/tt5594444/
7 P7 v. }# b: L' n& ]$ v8 {4 U- P' J- m8 B5 r+ g
◎导  演 Mark Newton" k8 i! x* z3 ]$ s3 [+ ?

& L8 m7 m6 b( v- n, n5 V◎主  演 Megan Few+ T" O# `+ k) t7 k

/ Z; ^) n8 m+ L8 C6 F2 Z      Jeremy Sande
4 ^# v( V; W, x  W0 G! [; N; w' X/ s/ ~, u7 c1 E; Y2 K/ U8 t$ g. B
      Michael Joiner4 j' T2 L7 c/ d7 [

9 u# ?: j8 Y' m3 q! ]8 {0 D0 h
: v& d/ T* i  J) W/ a' z2 k( r
◎简  介/ H" L& v- P1 `8 c9 u1 D

/ \# e  O5 m' u. y
6 B  d8 M- h% k
2 F& i$ R1 I0 C8 T5 A5 M  Lonnie, a crop duster pilot, must lead a mismatched group of survivors to escape the deadly zombie horde after an experimental chemical, intended to control the invasive kudzu vine, transforms the citizens of Charleston, MS into zombies." w; ^4 I& ?7 p

% g  f& y9 v9 ~% v3 W9 ^
* ~% h5 R  I: r( S8 x+ S) h
7 G7 |" |2 D6 \- n$ Y$ nVideo
( h$ }5 K# v7 m! x  _ID                                       : 1) I$ t9 j' ?' O. o
Format                                   : AVC2 \7 ?) s2 @' O
Format/Info                              : Advanced Video Codec
8 @9 _# g+ p7 k4 IFormat profile                           : High@L4.1
) v  _8 d; R8 ]8 |) k" ]Format settings                          : CABAC / 4 Ref Frames
5 r# A8 ~0 _7 DFormat settings, CABAC                   : Yes
* m# t/ r$ K& E& C8 v' A; rFormat settings, ReFrames                : 4 frames- a+ f. M8 R. }" Z% N$ O
Codec ID                                 : V_MPEG4/ISO/AVC
# U5 C, N* y$ F, hDuration                                 : 1 h 23 min
  I( Z# v0 F# Q; SBit rate                                 : 14.8 Mb/s
0 _0 Y% r! j! W$ sWidth                                    : 1 920 pixels, }% ~3 ^* ~" \' Z4 x  j/ }4 W. k1 V
Height                                   : 1 080 pixels
; D( r' J  V$ [9 i1 C, y5 W3 V7 M' JDisplay aspect ratio                     : 16:9
3 B! l% t, N3 O5 C9 X' ]" CFrame rate mode                          : Constant
2 \$ K1 F. @: v, e" @Frame rate                               : 23.976 (24000/1001) FPS0 d" {( @+ N$ f3 y& N2 P
Color space                              : YUV
& I! }, @7 U+ L. R- w) |4 lChroma subsampling                       : 4:2:0, P+ t0 i# H7 [0 c$ ?
Bit depth                                : 8 bits
1 J5 I3 w7 V  bScan type                                : Progressive( x/ Q! q1 @8 J/ J  R; b8 r0 E" Z
Bits/(Pixel*Frame)                       : 0.298
, }( L- |0 s6 mStream size                              : 8.61 GiB (91%)
4 z+ s# v. O% c7 {, R. qWriting library                          : x264 core 149 r2771+45 509cceb 7mod [8-bit@all X86_64]
" F$ m7 P! b' o( q" ^& iEncoding settings                        : cabac=1 / ref=4 / deblock=1:-3:-3 / analyse=0x3:0x113 / me=umh / subme=10 / psy=1 / fade_compensate=0.00 / psy_rd=0.90:0.10 / mixed_ref=1 / me_range=48 / chroma_me=1 / trellis=2 / 8x8dct=1 / cqm=0 / deadzone=21,11 / fast_pskip=0 / chroma_qp_offset=-2 / threads=12 / lookahead_threads=2 / sliced_threads=0 / nr=0 / decimate=1 / interlaced=0 / bluray_compat=0 / constrained_intra=0 / fgo=0 / bframes=8 / b_pyramid=2 / b_adapt=2 / b_bias=0 / direct=3 / weightb=1 / open_gop=0 / weightp=2 / keyint=250 / keyint_min=23 / scenecut=40 / intra_refresh=0 / rc_lookahead=40 / rc=crf / mbtree=0 / crf=19.0000 / qcomp=0.70 / qpmin=0:0:0 / qpmax=69:69:69 / qpstep=4 / vbv_maxrate=35000 / vbv_bufsize=35000 / crf_max=0.0 / nal_hrd=none / filler=0 / ip_ratio=1.40 / pb_ratio=1.30 / aq=3:1.00 / aq-sensitivity=10.00 / aq-factor=1.00:1.00:1.00 / aq2=0 / aq3=2:[0.50:0.50]:[0.50:0.50]:[0.50:0.50]:[0.50:0.50] / aq3-sensitivity=10.00 / aq3-factor=[1.00:1.00]:[1.00:1.00]:[1.00:1.00] / aq3-boundary=192:64:24' `1 |/ D2 U5 _1 a( X9 W: l
Language                                 : English
  x7 n" E4 f: j$ T- u6 ~Default                                  : Yes
8 L7 v% \& Z9 X  @  bForced                                   : No# b  @- N0 O4 e0 n# g
Color range                              : Limited
1 ?. \3 S) A, s8 v# fMatrix coefficients                      : BT.709. n& O7 c( ^8 O* f5 ~" \2 g6 D/ C

$ ]- |5 C1 n% T1 AAudio
/ n/ \. V5 ]2 P& F, P& cID                                       : 29 P  l  |6 h. I. M9 O. k
Format                                   : DTS
- F4 {2 }8 f. O" J; AFormat/Info                              : Digital Theater Systems' y8 S9 X) R; }8 {
Codec ID                                 : A_DTS
3 L. g- W* [& i+ l) pDuration                                 : 1 h 23 min
; B3 c' V4 T$ _9 ^Bit rate mode                            : Constant
1 Q0 v* Z& `# K4 Y# N  H: dBit rate                                 : 1 509 kb/s
$ G9 W: Y( Y' T) J( L7 d3 tChannel(s)                               : 6 channels
, h& f  {; {' ^/ tChannel positions                        : Front: L C R, Side: L R, LFE; s/ N5 {: D% R; i
Sampling rate                            : 48.0 kHz
  ]1 _/ `7 A8 L  @4 a' x% yFrame rate                               : 93.750 FPS (512 SPF)
: m, C& G$ @: _- sBit depth                                : 24 bits
, b8 Z9 O9 V3 y% I  i& eCompression mode                         : Lossy
7 W" P. ?% O- h/ DStream size                              : 898 MiB (9%)$ Y& C: u2 i. A$ z
Language                                 : English
' W: t2 v( h" o3 z' z8 P8 C2 }1 ZDefault                                  : Yes
9 F3 }  W& L2 Q0 z& eForced                                   : No

8 I5 }0 B6 n. |, u8 X3 W2 k& l$ F5 T5 [& b  R

6 V& n. E4 k* e' Q: I5 N

僵屍攻擊. MKV.torrent

95.48 KB, 下載次數: 712

尚未簽到

發表於 2018-3-7 16:14:35 | 顯示全部樓層
很讚的文章,謝謝咯!相信WK因為有你而更加精彩!
累計簽到︰1533 天
連續簽到︰43 天
發表於 2018-3-7 18:06:29 | 顯示全部樓層
這個我收藏了!謝謝分享!WK的資源越來越豐富,這少不了大大的辛勞!

尚未簽到

發表於 2018-3-8 03:24:01 來自手機 | 顯示全部樓層
感謝大大的辛勞分享!我會繼續在WK關注大大的文章!

尚未簽到

發表於 2018-3-8 13:51:41 | 顯示全部樓層
絕對的好貼!謝謝啊!逐字逐圖地看完這個帖子以後,我的心久久不能平靜,感恩啊!

尚未簽到

發表於 2018-3-10 00:12:14 | 顯示全部樓層
精妙絕倫的精品,感謝啊!期待你更多更好的創作哦!

尚未簽到

發表於 2018-3-10 15:50:52 | 顯示全部樓層
絕對的好貼!謝謝啊!逐字逐圖地看完這個帖子以後,我的心久久不能平靜,感恩啊!

尚未簽到

發表於 2018-3-10 18:18:52 | 顯示全部樓層
很讚的文章,謝謝咯!相信WK因為有你而更加精彩!
累計簽到︰914 天
連續簽到︰1 天
發表於 2018-3-10 23:26:44 | 顯示全部樓層
感謝大大的辛勞分享!我會繼續在WK關注大大的文章!

尚未簽到

發表於 2018-3-12 01:56:36 | 顯示全部樓層
偶像^^小生一直都在關注你的原創!小生對你之仰慕如滔滔江水連綿不絕!

回復樓主 親!! 下午好,中午養足了精神嗎?讓我們一起渡過下午茶時間,WK有您更精彩!

 分享同時學會感恩,一句感謝的話語,就是最大的支持!  歡迎交流討論
您需要登錄後才可以回帖 登錄 | 立即注册

本版積分規則

c重要聲明:本論壇是以即時上載言論的方式運作,WK論壇對所有言論的真實性、立場及版權等,不負任何法律責任。而一切言論只代表發佈者個人意見,並非本網站之立場,讀者及用戶務必自行判斷內容之真實性。 由於本論壇受到「即時上載言論」運作方式所規限,故不能完全監察所有言論,若讀者及用戶發現有內容出現「真實性、立場及版權」等問題,請聯絡我們:info@waikeung.net論壇有權刪除任何言論(刪除前或不會作事先警告及通知)| SiteMap[網站地圖]

發表新帖 返回頂部