WK綜合論壇, WK综合论坛

查看:5107 回復:11 發表於 2018-3-19 04:02:07
本主題由 212love 於 2018-3-16 09:59 解除高亮
累計簽到︰1409 天
連續簽到︰6 天
發表於 2018-3-14 10:01:56 | 顯示全部樓層 |閱讀模式

墓的入侵者 Tomb.Invader, 2018.[MKV/3.24GB] [複製鏈接]

影視分享
分類: 電影
題材: 動作 
地區: 美國 
語言: 英语 
格式: MKV 
年份: 2018
資源: BT资源
1.jpg + B# Z3 ^/ l7 m: z9 B

7 a$ h$ w* ^* o6 C$ v1 I4 z; s◎译  名 墓的入侵者( p$ m2 a% A& x0 t2 U: p6 _0 k
◎片  名 Tomb Invader
' N# P7 `& ?, a% h* Y3 o◎年  代 2018* r" R& ?: \, K5 X5 n: F
◎产  地 美国4 ?, ?8 s$ j/ D$ w2 w6 _
◎类  别 动作
3 V: ~8 e7 W7 w) a, X◎语  言 英语
3 ], l+ ?8 E* c5 \◎IMDb评分  N/A
! D7 v9 i: Y1 b2 Y) O& l) q◎IMDb链接  http://www.imdb.com/title/tt7781732/# h) |6 P& \% ~/ B! F' C6 ^
◎片  长 1h 23mn
+ [+ r$ l3 r3 D* Z◎导  演 James Thomas6 p$ x5 u/ |9 F! Y/ R
◎主  演 Gina Vitori ...Alabama Channing% r: Q2 e4 r: K9 D' B4 @
      Samantha Bowling ...Helena
' [! X; t' C* G6 x3 E& G) B      Andrew J Katers ...Nathan
) K, C6 i. n1 F  s      Evan Sloan ...Tim Parker
5 B  T. H, O7 u2 v7 Y      Shawn McConnell ...Bennie Blum
( Z) p% p- w5 L+ _1 x6 v      Tammy Klein ...Julie Channing1 z  W: p) |! a& N
      Kate Watson ...Michelle: h# A; s* H- ]8 k; [& z' o% j9 R
4 S. Q" n+ C- |
◎简  介
/ a7 a/ |; l9 L7 s8 A7 X: C# |+ U2 |8 f8 n" K
  A group of College kids find clues leading them to an ancient tomb somewhere deep in the jungle. Relics from the past bring these young adventurers closer to their goal and even closer to finding the truth of a missing family member.
8 q: v+ j! |% l: M  }" E, e; n' w  l6 H* j3 n3 L0 ~) m
CODE:4 E  ?/ O* F9 Y# @# v6 G
/ r1 `2 I" q3 B2 m
8 w& ~9 G7 W9 R  o/ {5 y
& T; H0 o1 m) d& F
Video4 q/ X! k2 `3 q/ Q3 a" |3 g4 U
ID                                       : 11 A, V3 J3 f% Z# @& D+ r; J
Format                                   : AVC5 y' y- ~1 }/ m2 d9 {0 _# r: T
Format/Info                              : Advanced Video Codec
7 X( |4 E  R" \+ \Format profile                           : High@L4
# I1 X! e5 W* A0 F+ Q7 f; @  a0 tFormat settings                          : CABAC / 4 Ref Frames
$ w* [) t$ G; oFormat settings, CABAC                   : Yes
) p- T$ X8 |- \2 H# c6 K, g* |Format settings, ReFrames                : 4 frames
7 o" D/ V; r# o" u( XCodec ID                                 : V_MPEG4/ISO/AVC. m* `% ^$ J5 O, Z  \
Duration                                 : 1 h 23 min/ }$ F* y. u  z+ `" s; v! U
Bit rate                                 : 5 195 kb/s. @' S7 ]  M) \9 C# |
Width                                    : 1 916 pixels* m* P& ^$ h# R
Height                                   : 1 076 pixels
3 G( S) i7 @; H8 c( T6 `5 n1 H' o; T! PDisplay aspect ratio                     : 16:9, _9 V0 w% t. j1 B% Y3 L/ ?
Frame rate mode                          : Constant8 {7 n6 ~( i* o/ E: i. \2 j) d, H) U7 ~
Frame rate                               : 23.976 (23976/1000) FPS' I+ `9 V% }' U# `  j
Color space                              : YUV
& {0 G( m7 F8 L9 X" bChroma subsampling                       : 4:2:0. |. M7 f3 I: T! N$ y$ w  q4 z9 ~& k
Bit depth                                : 8 bits4 X- }$ D" |+ W6 |; C
Scan type                                : Progressive
8 S0 s8 y; u9 u, {% r4 n1 KBits/(Pixel*Frame)                       : 0.105
4 m* Q& c* s/ ~( {7 K2 IStream size                              : 3.01 GiB (93%)
0 p: u; B* ]; R2 G$ fTitle                                    : Tomb.Invader.2018.1080p.WEB-DL.DD5.1.H.264-FGT2 B5 D9 r/ K- T% A8 f  ?) j  y7 e4 g
Language                                 : English
7 j4 {* G+ J: ^9 U8 F) e( I2 ?Default                                  : Yes: f6 v9 A4 N( S0 a
Forced                                   : No
6 o4 q$ i; N; `' }4 YColor range                              : Limited" d- W. f8 [* F! S  s
Color primaries                          : BT.709# j, Q+ W4 @! b7 _
Transfer characteristics                 : BT.709
  g) v! ?- l! N7 S  t- j% |& I& mMatrix coefficients                      : BT.7094 B( q( v" U6 d6 L

( c* T! z$ W/ m# [+ R; uAudio
, r: r9 ~/ |: N- U1 ^! B' T  RID                                       : 2
1 n, W$ M; Q' p% K0 Y2 n5 b$ ZFormat                                   : AC-3- ~: s) M$ Z4 C( W
Format/Info                              : Audio Coding 37 l( H" S8 ~2 H$ Q
Codec ID                                 : A_AC3
) p+ s5 \. ?0 Q. d, D3 ]( PDuration                                 : 1 h 23 min
" y, U4 C  t  m& g1 `. RBit rate mode                            : Constant$ `# R  w; x* A; ]! N, I
Bit rate                                 : 384 kb/s
3 ~9 H8 I( f# x) Q% DChannel(s)                               : 6 channels
5 f4 G9 i- \1 {' a, N1 s4 XChannel positions                        : Front: L C R, Side: L R, LFE
5 d9 X3 W" m$ ~, P/ e) D& l& p; f# BSampling rate                            : 48.0 kHz" q2 m1 d" `. s3 ?; s
Frame rate                               : 31.250 FPS (1536 SPF), y/ D$ L% p, ]; r* S
Bit depth                                : 16 bits
' a6 U, b( f; x, ECompression mode                         : Lossy% m- ?( p6 D( f( I, I4 l  H2 y
Stream size                              : 228 MiB (7%)0 h/ k& I2 b) P0 H
Title                                    : Tomb.Invader.2018.1080p.WEB-DL.DD5.1.H.264-FGT
$ @8 a- w5 W1 |+ c3 vLanguage                                 : English
2 o( x5 x$ W; ^! m0 `: Z# YService kind                             : Complete Main- H0 R# ~& Q5 p+ N/ k: O( O! Q
Default                                  : Yes/ {6 U# y% p: r* P8 O6 ~9 J
Forced                                   : No
1 r# p' y9 X7 d/ R4 A6 z1 P) ?2 x- g- k9 q
Text
8 U6 K- _" m! }ID                                       : 3' e6 I) I" C2 y/ Y0 p% `& V
Format                                   : UTF-8
  q1 i6 f( [# Q. V! N4 t7 n: d2 z8 ZCodec ID                                 : S_TEXT/UTF8
  h8 e7 E; t* L3 }% u* zCodec ID/Info                            : UTF-8 Plain Text
6 m4 g# q4 V& w1 R/ r) B/ lDuration                                 : 1 h 19 min9 {0 ^2 x( r  X' n9 A9 A7 w
Bit rate                                 : 63 b/s( y( l% Y% [* U+ u  F+ {, F3 y
Count of elements                        : 12565 n9 {' L* Y* D% r
Stream size                              : 37.1 KiB (0%)6 p. Q: z) G, {9 u% i
Language                                 : English
! x# f( g( ]  h/ y  _Default                                  : Yes
4 Z3 c0 c1 v- T( _% ?& nForced                                   : No
4 K: f* D4 V6 }. m  Z- ]( m
! ^5 x- @) Z% N6 K" aMenu
/ f' l" w1 _' V( b! [, X00:00:00.000                             : en:1
- k% l7 P4 B) U4 C: @0 k00:11:12.000                             : en:22 g. d4 f  {# v
00:21:03.000                             : en:3
4 e$ u( g3 D6 D/ E00:31:26.000                             : en:4
' r; c7 W- \& S& }00:40:30.000                             : en:50 ]( {1 Z! ], W- L3 {, _0 \# p% |5 y
00:50:03.000                             : en:62 l. J; F0 h! M3 j' u- P! _" A
01:00:53.000                             : en:7
( U( I! q8 I* P5 f& F' A01:12:07.000                             : en:8
- i, l& E& {* P4 F1 G, z0 e01:19:44.000                             : en:9
7 _' T1 `4 I1 x) K8 n9 a9 U
- d  g3 s# D5 M) I6 ]
+ Z. V2 [% X, q3 c

+ ?% C6 _5 J2 q4 c" }
) B/ _  c9 X$ \5 x0 d9 ]
9 Q$ u& }2 S& ]  r% b% ^# b
- z6 H/ ~: \# S4 z0 W; G

墓的入侵者 MKV.torrent

65.3 KB, 下載次數: 321

尚未簽到

發表於 2018-3-14 10:02:56 | 顯示全部樓層
絕對的好貼!謝謝啊!逐字逐圖地看完這個帖子以後,我的心久久不能平靜,感恩啊!
累計簽到︰120 天
連續簽到︰1 天
發表於 2018-3-14 14:13:33 | 顯示全部樓層
這個我收藏了!謝謝分享!WK的資源越來越豐富,這少不了大大的辛勞!
累計簽到︰1094 天
連續簽到︰450 天
發表於 2018-3-14 15:05:20 | 顯示全部樓層
感謝大大的辛勞分享!我會繼續在WK關注大大的文章!
累計簽到︰868 天
連續簽到︰4 天
發表於 2018-3-14 23:52:10 | 顯示全部樓層
感謝大大的辛勞分享!我會繼續在WK關注大大的文章!
累計簽到︰203 天
連續簽到︰2 天
發表於 2018-3-15 00:12:08 | 顯示全部樓層
偶像^^小生一直都在關注你的原創!小生對你之仰慕如滔滔江水連綿不絕!

尚未簽到

發表於 2018-3-16 02:55:11 | 顯示全部樓層
這個我收藏了!謝謝分享!WK的資源越來越豐富,這少不了大大的辛勞!

尚未簽到

發表於 2018-3-16 11:00:49 | 顯示全部樓層
這個我收藏了!謝謝分享!WK的資源越來越豐富,這少不了大大的辛勞!

尚未簽到

發表於 2018-3-17 09:11:47 來自手機 | 顯示全部樓層
精妙絕倫的精品,感謝啊!期待你更多更好的創作哦!

尚未簽到

發表於 2018-3-19 04:02:07 | 顯示全部樓層
精妙絕倫的精品,感謝啊!期待你更多更好的創作哦!

回復樓主 親!! 早上好! 心底有WK、心情就會飛翔,心中要個希望、笑容就會清爽!

 分享同時學會感恩,一句感謝的話語,就是最大的支持!  歡迎交流討論
您需要登錄後才可以回帖 登錄 | 立即注册

本版積分規則

c重要聲明:本論壇是以即時上載言論的方式運作,WK論壇對所有言論的真實性、立場及版權等,不負任何法律責任。而一切言論只代表發佈者個人意見,並非本網站之立場,讀者及用戶務必自行判斷內容之真實性。 由於本論壇受到「即時上載言論」運作方式所規限,故不能完全監察所有言論,若讀者及用戶發現有內容出現「真實性、立場及版權」等問題,請聯絡我們:info@waikeung.net論壇有權刪除任何言論(刪除前或不會作事先警告及通知)| SiteMap[網站地圖]

發表新帖 返回頂部