WK綜合論壇, WK综合论坛

查看:5245 回復:11 發表於 2018-3-19 04:02:07
本主題由 212love 於 2018-3-16 09:59 解除高亮
累計簽到︰1493 天
連續簽到︰40 天
發表於 2018-3-14 10:01:56 | 顯示全部樓層 |閱讀模式

墓的入侵者 Tomb.Invader, 2018.[MKV/3.24GB] [複製鏈接]

影視分享
分類: 電影
題材: 動作 
地區: 美國 
語言: 英语 
格式: MKV 
年份: 2018
資源: BT资源
1.jpg
' w, `  L2 D0 ~! Z9 A# \1 q
; u% _( O4 E; S$ D+ j" H◎译  名 墓的入侵者* V5 W& M; b6 l! l+ J8 _
◎片  名 Tomb Invader* e4 {  ~' V( ?; a  f4 z
◎年  代 2018) y. \7 M/ I: N1 R; T0 i$ }; b
◎产  地 美国: S0 l: n2 p8 m0 L
◎类  别 动作7 p' d, W/ ~$ r! I
◎语  言 英语" w! ?( }9 n( P5 |5 Z
◎IMDb评分  N/A7 ]7 m& H6 F2 ]0 M
◎IMDb链接  http://www.imdb.com/title/tt7781732/+ r. l( w+ D, f( T* a! G
◎片  长 1h 23mn
1 m# ]. C0 B) n7 P  v# o/ ?; ?9 z◎导  演 James Thomas  W0 J5 t4 I7 Z$ G' T
◎主  演 Gina Vitori ...Alabama Channing$ M9 }2 z, V9 W. e' a
      Samantha Bowling ...Helena* f6 G& ]. t! {: D3 [& K
      Andrew J Katers ...Nathan3 v+ r9 Z/ ~% D* Q) t! d8 e3 z
      Evan Sloan ...Tim Parker  R2 X, z: O+ g6 y) a" f8 \* Y& D
      Shawn McConnell ...Bennie Blum& q  H& w* m5 P* {
      Tammy Klein ...Julie Channing3 _+ o8 n8 R3 B  T8 h
      Kate Watson ...Michelle: D7 c! O+ G2 }- j) b6 a

( u6 d& U6 `" i◎简  介8 N* ~  B8 g( |/ s2 W

- M. h& t5 S+ q) W% E! E8 {  A group of College kids find clues leading them to an ancient tomb somewhere deep in the jungle. Relics from the past bring these young adventurers closer to their goal and even closer to finding the truth of a missing family member.! w; _& E. S0 p% p
) x8 t$ y7 G" F3 s. ]6 c! |
CODE:# I" @( z# Y, G* l! e" r( `6 G3 a
* c% B, T  z9 N2 V
* K% G# J6 U% U- {8 E4 K0 K

" H* V0 z- k/ X1 XVideo, Z2 j1 I5 D. I
ID                                       : 1
$ ]  f5 c8 D, g2 I8 VFormat                                   : AVC5 C% I1 n2 V' O
Format/Info                              : Advanced Video Codec
% V; I% t# j3 D6 C1 gFormat profile                           : High@L4
/ a  {* @6 G/ WFormat settings                          : CABAC / 4 Ref Frames5 F+ H8 d  G9 J1 n- f7 l
Format settings, CABAC                   : Yes
# `- q, E, P* X3 K% wFormat settings, ReFrames                : 4 frames
. D8 L" f. c8 E/ x! A/ \Codec ID                                 : V_MPEG4/ISO/AVC& t, ?- M  f& A2 }; o" m  \
Duration                                 : 1 h 23 min
5 H0 f4 H- S# f  l# fBit rate                                 : 5 195 kb/s
; ~% c, x" M7 i0 F' c4 L$ jWidth                                    : 1 916 pixels
6 h8 y# F% U9 nHeight                                   : 1 076 pixels
$ k6 I& _- {. y6 L+ \2 A1 F/ y# LDisplay aspect ratio                     : 16:98 v- X& B+ I+ Z' E& ~
Frame rate mode                          : Constant# L2 b8 g8 i. J, |5 R# e! T' v+ o
Frame rate                               : 23.976 (23976/1000) FPS
  ~  |% k2 T/ ^" YColor space                              : YUV
' s/ @6 B; W! fChroma subsampling                       : 4:2:0
- y. l' ^7 J) NBit depth                                : 8 bits! H# p8 \/ A6 k1 |
Scan type                                : Progressive
6 P0 E, t" Y* s6 [+ bBits/(Pixel*Frame)                       : 0.105
( `, @: D, ^2 x3 {Stream size                              : 3.01 GiB (93%)  C! u" I: n0 C4 B$ }
Title                                    : Tomb.Invader.2018.1080p.WEB-DL.DD5.1.H.264-FGT
& `4 T; \6 z3 ULanguage                                 : English
, J  l7 h5 e. ]7 H# DDefault                                  : Yes
( U3 |$ m/ U, p5 UForced                                   : No/ A1 h" U# S) N9 ?. }' y) k
Color range                              : Limited' w3 J6 G$ r: D5 ?; T* P
Color primaries                          : BT.709; o# j6 _( H( b  i. o
Transfer characteristics                 : BT.709
3 z- d0 f; e  [& EMatrix coefficients                      : BT.7098 O6 _  d# V& O  s+ Z3 J  q9 B4 f

2 z' y# i4 m4 z* EAudio
# b$ y* N6 V7 L1 QID                                       : 2
+ R; }% R: N' _3 KFormat                                   : AC-3
6 c$ N0 [6 }* s- B* FFormat/Info                              : Audio Coding 3$ H  f* d6 w; ~8 w
Codec ID                                 : A_AC3
3 q3 b5 d) \) x7 g, O, B  P, s# GDuration                                 : 1 h 23 min
# f; W) Z- d: k) K! E$ C8 }3 I# EBit rate mode                            : Constant/ c& T2 y4 `4 h7 Y/ g0 W" r
Bit rate                                 : 384 kb/s
, L% R% p' x5 n$ ?Channel(s)                               : 6 channels
8 s7 w# `6 n; }0 LChannel positions                        : Front: L C R, Side: L R, LFE& i9 p# w- Y7 \1 Y: Q" @$ g
Sampling rate                            : 48.0 kHz
6 P: @4 c5 K+ i3 W- t- L; OFrame rate                               : 31.250 FPS (1536 SPF): D4 N) d$ k( b1 b& H3 D' ^6 @" O1 Z3 q
Bit depth                                : 16 bits8 ]7 V- Y/ j! ~& H. T- v* h; ~
Compression mode                         : Lossy
) r% d, d( b7 sStream size                              : 228 MiB (7%)/ T- F. d, }* ]/ {% j- s
Title                                    : Tomb.Invader.2018.1080p.WEB-DL.DD5.1.H.264-FGT
7 a, ^8 y4 @$ ^7 X1 J! iLanguage                                 : English
2 b4 j$ `/ Y* gService kind                             : Complete Main9 w0 `( c5 A; P0 Y1 I
Default                                  : Yes
, c2 e5 g, A6 n- I5 b' o) X; GForced                                   : No
  u; _3 n: p  g4 I4 N( \& Q  u
* C, L5 H+ B, }% WText+ I- Q3 }; J+ I  q+ z; }
ID                                       : 30 }/ e' U( c+ r6 c! w
Format                                   : UTF-8
) G: k8 \( {* x- U7 ~- s% \Codec ID                                 : S_TEXT/UTF8
6 v# Y, n* S, |; M; W1 A9 X! iCodec ID/Info                            : UTF-8 Plain Text4 f( f& n4 P" @" q  g; g7 r
Duration                                 : 1 h 19 min1 g4 l! G1 |; G
Bit rate                                 : 63 b/s! n: b/ {( D4 M$ j2 W/ N  [
Count of elements                        : 1256
) f1 ^$ x9 u7 T: m5 O; LStream size                              : 37.1 KiB (0%)
0 n+ t& u# N/ MLanguage                                 : English% r1 `) {$ @( I5 b2 w+ M
Default                                  : Yes5 o' a7 ^1 b/ D3 ~" z: L& }) C
Forced                                   : No$ `' a( @+ e9 I% P
' m2 e- b5 Q4 H/ y* g! C" [
Menu
" ^5 }! e, m6 e% z0 J0 B/ T00:00:00.000                             : en:11 E$ F/ Q1 m) ]- s/ P; T
00:11:12.000                             : en:2, d4 o7 L: Z3 Z3 z2 A* {( @
00:21:03.000                             : en:3
# c' A5 Q% ~+ R, ]+ ~0 u' u00:31:26.000                             : en:43 R2 M. g0 b5 D4 `3 v
00:40:30.000                             : en:5
) B! ^! }7 M4 q/ G: z, }  U00:50:03.000                             : en:69 G7 z) z; v4 ^8 p& C+ X2 e
01:00:53.000                             : en:79 \- f0 w$ S/ _. N' _
01:12:07.000                             : en:8
% W' F2 R+ A* [" ?, R- j0 h, ^/ A01:19:44.000                             : en:9
/ g( u" i* G$ l# c: q

( q4 T8 t5 g; s1 n% [- {: n/ w" J* \( U) {& t! Z  d5 h

/ s$ s8 Z1 Q! e6 c0 |5 y) V4 C1 T# ]( K" A

3 D7 S! D& G5 c/ l8 t. I8 Y; }$ S6 V6 m

墓的入侵者 MKV.torrent

65.3 KB, 下載次數: 321

尚未簽到

發表於 2018-3-14 10:02:56 | 顯示全部樓層
絕對的好貼!謝謝啊!逐字逐圖地看完這個帖子以後,我的心久久不能平靜,感恩啊!
累計簽到︰133 天
連續簽到︰1 天
發表於 2018-3-14 14:13:33 | 顯示全部樓層
這個我收藏了!謝謝分享!WK的資源越來越豐富,這少不了大大的辛勞!
累計簽到︰1180 天
連續簽到︰37 天
發表於 2018-3-14 15:05:20 | 顯示全部樓層
感謝大大的辛勞分享!我會繼續在WK關注大大的文章!
累計簽到︰926 天
連續簽到︰3 天
發表於 2018-3-14 23:52:10 | 顯示全部樓層
感謝大大的辛勞分享!我會繼續在WK關注大大的文章!
累計簽到︰204 天
連續簽到︰1 天
發表於 2018-3-15 00:12:08 | 顯示全部樓層
偶像^^小生一直都在關注你的原創!小生對你之仰慕如滔滔江水連綿不絕!

尚未簽到

發表於 2018-3-16 02:55:11 | 顯示全部樓層
這個我收藏了!謝謝分享!WK的資源越來越豐富,這少不了大大的辛勞!

尚未簽到

發表於 2018-3-16 11:00:49 | 顯示全部樓層
這個我收藏了!謝謝分享!WK的資源越來越豐富,這少不了大大的辛勞!

尚未簽到

發表於 2018-3-17 09:11:47 來自手機 | 顯示全部樓層
精妙絕倫的精品,感謝啊!期待你更多更好的創作哦!

尚未簽到

發表於 2018-3-19 04:02:07 | 顯示全部樓層
精妙絕倫的精品,感謝啊!期待你更多更好的創作哦!

回復樓主 親!! 早上好! 心底有WK、心情就會飛翔,心中要個希望、笑容就會清爽!

 分享同時學會感恩,一句感謝的話語,就是最大的支持!  歡迎交流討論
您需要登錄後才可以回帖 登錄 | 立即注册

本版積分規則

c重要聲明:本論壇是以即時上載言論的方式運作,WK論壇對所有言論的真實性、立場及版權等,不負任何法律責任。而一切言論只代表發佈者個人意見,並非本網站之立場,讀者及用戶務必自行判斷內容之真實性。 由於本論壇受到「即時上載言論」運作方式所規限,故不能完全監察所有言論,若讀者及用戶發現有內容出現「真實性、立場及版權」等問題,請聯絡我們:info@waikeung.net論壇有權刪除任何言論(刪除前或不會作事先警告及通知)| SiteMap[網站地圖]

發表新帖 返回頂部